[MoviesJug Net] BHARAT ANE NENU 2018 Off Torrent Free Download

Seeders : 561   &   Leechers : 642      12-10-2018 (1 week)
[MoviesJug Net] BHARAT ANE NENU 2018 Off Torrent Download
Added: ago by Moviesjug ***** in Movies   38.4 MB   Hits : 34
Info Hash: 449199B9CB495566137D29230885A09491514F6A Download
[MoviesJug Net] BHARAT ANE NENU 2018 Off Torrent Download

Anonymous and Direct Download movies , software , shows...

Fast Safe Anonymous
movies, software, shows...

Torrent Description











VISIT OUR SITE==}

http://moviesjug.net/



SCREENSHOTS









MEDIA INFO




General
BHARAT  The Great Leader 2018 [MoviesJug.Net] Official Hindi Dubbed Trailer 1080p Mahesh Babu.mkv
Format                                   : Matroska
Format version                           : Version 4 / Version 2
File size                                : 15.0 MiB
Duration                                 : 2 min 4 s
Overall bit rate                         : 1 012 kb/s
Movie name                               : Downloaded From [MoviesJug.Net]

Video
ID                                       : 1
Format                                   : AVC
Format/Info                              : Advanced Video Codec
Format profile                           : [email protected]
Format settings                          : CABAC / 3 Ref Frames
Format settings, CABAC                   : Yes
Format settings, RefFrames               : 3 frames
Codec ID                                 : V_MPEG4/ISO/AVC
Duration                                 : 2 min 4 s
Bit rate                                 : 882 kb/s
Width                                    : 1 920 pixels
Height                                   : 1 080 pixels
Display aspect ratio                     : 16:9
Frame rate mode                          : Constant
Frame rate                               : 30.000 FPS
Color space                              : YUV
Chroma subsampling                       : 4:2:0
Bit depth                                : 8 bits
Scan type                                : Progressive
Bits/(Pixel*Frame)                       : 0.014
Stream size                              : 13.1 MiB (87%)
Title                                    : Downloaded From [MoviesJug.Net]
Language                                 : Hindi
Default                                  : Yes
Forced                                   : No
Color range                              : Limited
Color primaries                          : BT.709
Transfer characteristics                 : BT.709
Matrix coefficients                      : BT.601

Audio
ID                                       : 2
Format                                   : AAC
Format/Info                              : Advanced Audio Codec
Format profile                           : LC
Codec ID                                 : A_AAC-2
Duration                                 : 2 min 4 s
Bit rate                                 : 128 kb/s
Channel(s)                               : 2 channels
Channel positions                        : Front: L R
Sampling rate                            : 44.1 kHz
Frame rate                               : 43.066 FPS (1024 SPF)
Compression mode                         : Lossy
Stream size                              : 1.90 MiB (13%)
Title                                    : Downloaded From [MoviesJug.Net]
Language                                 : Hindi
Default                                  : Yes
Forced                                   : No




Sharing Widget


No Comments For This Torrent . Be The First to Comment

You must Login to Comment . Click Here to Login

Menu 1

Some content in menu 1.

[MoviesJug Net] BHARAT ANE NENU 2018 Official Hindi Dubbed Trailer 108 (Size: 38.4 MB)
  [MoviesJug Net] BHARAT ANE NENU 2018 Official Hindi Dubbed Trailer 108 38.4 MB
tracker name
udp://tracker.leechers-paradise.org:6969/announce
udp://zer0day.ch:1337/announce
udp://open.demonii.com:1337/announce
udp://tracker.coppersurfer.tk:6969/announce
udp://exodus.desync.com:6969/announce
µTorrent compatible trackers list

Relative Torrents

Torrent Name Size Age SEED LEECH
Koreni 2018 S01EP01 720p x264 - ExYuSubs
Posted by    Botanicar   in   TV
799.3 MB 1 minute 595 861
Kanaka (2018) UNCUT HEVC 720p HDRip x264[Dual Audio] [Hindi OR Kannada] Full So
Posted by    BDMovieHD   in   Movies
732.6 MB 9 minutes 814 641
Emmerdale 22nd Oct 2018 1080p (Deep61) [WRG]
Posted by    Deep61   in   TV
472.0 MB 11 minutes 599 424
Kanaka (2018) UNCUT 720p HDRip x264 [Dua Audio] [Hindi OR Kannada] Full South M
Posted by    BDMovieHD   in   Movies
1.4 GB 15 minutes 281 601
Hollyoaks 22nd Oct 2018 1080p (Deep61) [WRG]
Posted by    Deep61   in   TV
475.6 MB 36 minutes 704 618