[MoviesJug Net] Arthur And The Invisible Torrent Free Download

Seeders : 484   &   Leechers : 908      12-10-2018 (1 week)
[MoviesJug Net] Arthur And The Invisible Torrent Download
Added: ago by Moviesjug ***** in Movies   966.6 MB   Hits : 31
Info Hash: 0E3A714A02FE078CA0C45B5395105C94B575588F Download
[MoviesJug Net] Arthur And The Invisible Torrent Download

Anonymous and Direct Download movies , software , shows...

Fast Safe Anonymous
movies, software, shows...

Torrent Description









VISIT OUR SITE ==}http://moviesjug.net/




SCREENSHOTS









MEDIA INFO




General
Arthur And The Invisibles (2006) [MoviesJug.Net] 720p BluRay [Dual Audio] [Hindi ORG - English] x264 Eng Subs.mkv
Format : Matroska
Format version : Version 4 / Version 2
File size : 967 MiB
Duration : 1 h 43 min
Overall bit rate : 1 301 kb/s
Movie name : Downloaded From [MoviesJug.Net]

Video
ID : 1
Format : AVC
Format/Info : Advanced Video Codec
Format profile : [email protected]
Format settings : CABAC / 5 Ref Frames
Format settings, CABAC : Yes
Format settings, RefFrames : 5 frames
Codec ID : V_MPEG4/ISO/AVC
Duration : 1 h 43 min
Bit rate : 985 kb/s
Width : 1 280 pixels
Height : 548 pixels
Display aspect ratio : 2.35:1
Frame rate mode : Constant
Frame rate : 23.976 (24000/1001) FPS
Color space : YUV
Chroma subsampling : 4:2:0
Bit depth : 8 bits
Scan type : Progressive
Bits/(Pixel*Frame) : 0.059
Stream size : 732 MiB (76%)
Title : Downloaded From [MoviesJug.Net]
Writing library : x264 core 148 r2721 72d53ab
Language : English
Default : Yes
Forced : No

Audio #1
ID : 2
Format : AC-3
Format/Info : Audio Coding 3
Codec ID : A_AC3
Duration : 1 h 43 min
Bit rate mode : Constant
Bit rate : 224 kb/s
Channel(s) : 2 channels
Channel positions : Front: L R
Sampling rate : 48.0 kHz
Frame rate : 31.250 FPS (1536 SPF)
Bit depth : 16 bits
Compression mode : Lossy
Stream size : 166 MiB (17%)
Title : Downloaded From [MoviesJug.Net]
Language : Hindi
Service kind : Complete Main
Default : Yes




Sharing Widget


No Comments For This Torrent . Be The First to Comment

You must Login to Comment . Click Here to Login

Menu 1

Some content in menu 1.

[MoviesJug Net] Arthur And The Invisibles (2006) 720p BluRay [Dual Aud (Size: 966.6 MB)
  [MoviesJug Net] Arthur And The Invisibles (2006) 720p BluRay [Dual Aud 966.6 MB
tracker name
udp://tracker.leechers-paradise.org:6969/announce
udp://zer0day.ch:1337/announce
udp://open.demonii.com:1337/announce
udp://tracker.coppersurfer.tk:6969/announce
udp://exodus.desync.com:6969/announce
µTorrent compatible trackers list

Relative Torrents

Torrent Name Size Age SEED LEECH
YOU S01E07 Everythingship 720p HDTV x264W4F[TGx]
Posted by    mazemaze16   in   TV
735.1 MB 6 minutes 765 549
Sanju (2018) Full Movie [Hindi-DD5 1] 72p HDRip ESubs [220x]
Posted by    220x   in   Movies
1.3 GB 11 minutes 143 473
Mandy 2018 720p BluRay DTS X264-CMRG[TGx
Posted by    mazemaze16   in   Movies
3.1 GB 11 minutes 655 355
Halloween Wars S08E04 Halloween Time Trael 720p WEB x264-CAFFEiNE [eztv]
Posted by    EZTVag   in   TV
963.3 MB 21 minutes 80 977
Frankenstein Family S01E11 720p WEB x264ANiURL [eztv]
Posted by    EZTVag   in   TV
412.6 MB 21 minutes 481 397