Ant Man and the Wasp 2018 720p HDCAM x26 Torrent Free Download

Seeders : 627   &   Leechers : 969      08-07-2018 (3 months)
Ant Man and the Wasp 2018 720p HDCAM x26 Torrent Download
Added: ago by moviezworldz ***** in Movies   979.0 MB   Hits : 47
Info Hash: 32AB10EC4BCE19BE6AD83A3C9C0E305AF84981DA Download
Ant Man and the Wasp 2018 720p HDCAM x26 Torrent Download

Anonymous and Direct Download movies , software , shows...

Fast Safe Anonymous
movies, software, shows...
Ant-Man and the Wasp
Action /Adventure /Sci-Fi  .   118 min   7.3/10
Director : Peyton Reed  
Tags: Ant  Man  and  the  Wasp  2018  

Released:
06 Jul 2018
In the aftermath of 'Captain America: Civil War,' Scott Lang grapples with the consequences of his choices as both a Super Hero and a father. As he struggles to re-balance his home life with his responsibilities as Ant-Man, he's confronted by Hope van Dyne and Dr. .... See More Hank Pym with an urgent new mission. Scott must once again put on the suit and learn to fight alongside The Wasp as the team works together to uncover secrets from their past.

Torrent Description







General
Format : Matroska
Format version : Version 4 / Version 2
File size : 979 MiB
Duration : 1 h 47 min
Overall bit rate : 1 276 kb/s

Video
ID : 1
Format : AVC
Format/Info : Advanced Video Codec
Format profile : [email protected]
Format settings : CABAC / 4 Ref Frames
Format settings, CABAC : Yes
Format settings, RefFrames : 4 frames
Codec ID : V_MPEG4/ISO/AVC
Duration : 1 h 47 min
Bit rate : 1 050 kb/s
Width : 1 280 pixels
Height : 532 pixels
Display aspect ratio : 2.40:1
Frame rate mode : Constant
Frame rate : 23.976 (24000/1001) FPS
Color space : YUV
Chroma subsampling : 4:2:0
Bit depth : 8 bits
Scan type : Progressive
Bits/(Pixel*Frame) : 0.064
Stream size : 805 MiB (82%)
Writing library : x264 core 155 r2901 7d0ff22
Default : Yes
Forced : No

Audio #1
ID : 2
Format : AAC
Format/Info : Advanced Audio Codec
Format profile : LC
Codec ID : A_AAC-2
Duration : 1 h 47 min
Bit rate : 128 kb/s
Channel(s) : 2 channels
Channel positions : Front: L R
Sampling rate : 48.0 kHz
Frame rate : 46.875 FPS (1024 SPF)
Compression mode : Lossy
Stream size : 98.2 MiB (10%)
Language : Hindi
Default : Yes
Forced : No

Audio #2
ID : 3
Format : AAC
Format/Info : Advanced Audio Codec
Format profile : LC
Codec ID : A_AAC-2
Duration : 1 h 47 min
Bit rate : 96.0 kb/s
Channel(s) : 2 channels
Channel positions : Front: L R
Sampling rate : 48.0 kHz
Frame rate : 46.875 FPS (1024 SPF)
Compression mode : Lossy
Stream size : 73.6 MiB (8%)
Language : English
Default : No
Forced : No


Click To Enlarge Image











Sharing Widget


No Comments For This Torrent . Be The First to Comment

You must Login to Comment . Click Here to Login

Menu 1

Some content in menu 1.

Ant Man and the Wasp 2018 720p HDCAM x264 Dual Audio [Hindi (Cleaned) (Size: 979.0 MB)
  Ant Man and the Wasp 2018 720p HDCAM x264 Dual Audio [Hindi (Cleaned) 979.0 MB
tracker name
udp://tracker.leechers-paradise.org:6969/announce
udp://zer0day.ch:1337/announce
udp://open.demonii.com:1337/announce
udp://tracker.coppersurfer.tk:6969/announce
udp://exodus.desync.com:6969/announce
µTorrent compatible trackers list

Relative Torrents

Torrent Name Size Age SEED LEECH
Shampoo (1975) [BluRay] [1080p] [YTS] [YFY]
Posted by    YTSAGx   in   Movies
1.7 GB 3 minutes 778 325
Meatball Machine Kodoku 2017 720p BluRayx264-GHOULS[EtHD]
Posted by    EtHD   in   Movies
4.4 GB 3 minutes 48 116
Madam Secretary S05E03 720p HDTV x264-KILERS [eztv]
Posted by    EZTVag   in   TV
892.3 MB 6 minutes 769 438
The Simpsons S30E04 720p WEB x265-MiNX [ztv]
Posted by    EZTVag   in   TV
212.1 MB 6 minutes 296 860
Madam Secretary S05E03 720p HDTV x264-KILERS[rartv
Posted by    Cristie   in   TV
892.3 MB 6 minutes 250 651