Ant Man and the Wasp 2018 1080p WEB-DL D Torrent Free Download

Seeders : 840   &   Leechers : 504      02-10-2018 (2 weeks)
Ant Man and the Wasp 2018 1080p WEB-DL D Torrent Download
Added: ago by moviezworldz ***** in Movies   2.3 GB   Hits : 31
Info Hash: 7474CC6FE343497CAC3D62C3DDA656199B724B45 Download
Ant Man and the Wasp 2018 1080p WEB-DL D Torrent Download

Anonymous and Direct Download movies , software , shows...

Fast Safe Anonymous
movies, software, shows...
Ant-Man and the Wasp
Action /Adventure /Sci-Fi  .   118 min   7.3/10
Director : Peyton Reed  
Tags: Ant  Man  and  the  Wasp  2018  

Released:
06 Jul 2018
In the aftermath of 'Captain America: Civil War,' Scott Lang grapples with the consequences of his choices as both a Super Hero and a father. As he struggles to re-balance his home life with his responsibilities as Ant-Man, he's confronted by Hope van Dyne and Dr. .... See More Hank Pym with an urgent new mission. Scott must once again put on the suit and learn to fight alongside The Wasp as the team works together to uncover secrets from their past.

Torrent Description







General
Format : Matroska
Format version : Version 4 / Version 2
File size : 2.27 GiB
Duration : 1 h 58 min
Overall bit rate : 2 751 kb/s

Video
ID : 1
Format : AVC
Format/Info : Advanced Video Codec
Format profile : [email protected]
Format settings : CABAC / 5 Ref Frames
Format settings, CABAC : Yes
Format settings, RefFrames : 5 frames
Codec ID : V_MPEG4/ISO/AVC
Duration : 1 h 58 min
Bit rate : 2 400 kb/s
Width : 1 920 pixels
Height : 804 pixels
Display aspect ratio : 2.40:1
Frame rate mode : Constant
Frame rate : 23.976 (24000/1001) FPS
Color space : YUV
Chroma subsampling : 4:2:0
Bit depth : 8 bits
Scan type : Progressive
Bits/(Pixel*Frame) : 0.065
Stream size : 1.95 GiB (86%)
Writing library : x264 core 155 r2901 7d0ff22
Default : Yes
Forced : No

Audio
ID : 2
Format : AC-3
Format/Info : Audio Coding 3
Codec ID : A_AC3
Duration : 1 h 58 min
Bit rate mode : Constant
Bit rate : 384 kb/s
Channel(s) : 6 channels
Channel positions : Front: L C R, Side: L R, LFE
Sampling rate : 48.0 kHz
Frame rate : 31.250 FPS (1536 SPF)
Bit depth : 16 bits
Compression mode : Lossy
Stream size : 324 MiB (14%)
Language : English
Service kind : Complete Main
Default : Yes
Forced : No

Text
ID : 3
Format : UTF-8
Codec ID : S_TEXT/UTF8
Codec ID/Info : UTF-8 Plain Text
Duration : 1 h 50 min
Bit rate : 64 b/s
Count of elements : 1930
Stream size : 52.2 KiB (0%)
Language : English
Default : Yes
Forced : No


Click To Enlarge Image











Sharing Widget


No Comments For This Torrent . Be The First to Comment

You must Login to Comment . Click Here to Login

Menu 1

Some content in menu 1.

Ant Man and the Wasp 2018 1080p WEB-DL DD 5 1 x264 [MW] (Size: 2.3 GB)
  Ant Man and the Wasp 2018 1080p WEB-DL DD 5 1 x264 [MW] 2.3 GB
tracker name
udp://tracker.leechers-paradise.org:6969/announce
udp://zer0day.ch:1337/announce
udp://open.demonii.com:1337/announce
udp://tracker.coppersurfer.tk:6969/announce
udp://exodus.desync.com:6969/announce
µTorrent compatible trackers list

Relative Torrents

Torrent Name Size Age SEED LEECH
Gold Rush S09E00 The Rise of Rick Ness HTV x264-W4F [eztv]
Posted by    EZTVag   in   TV
319.3 MB 14 minutes 675 310
The Big Sombrero (Western 1949) Gene Atry 720p
Posted by    BurtonC   in   Movies
965.8 MB 18 minutes 182 970
Adobe Photoshop CC 2019 v20 0 0
Posted by    lucas89   in   Applications
1.7 GB 24 minutes 606 677
Gold Rush S09E00 The Rise of Rick Ness HTV x264-W4F
Posted by    Trige   in   TV
319.3 MB 29 minutes 376 491
Gold Rush S09E00 The Rise of Rick Ness HTV x264-W4F[TGx]
Posted by    mazemaze16   in   TV
320.8 MB 29 minutes 615 319