Ant Man and the Wasp 2018 1080p BluRay x Torrent Free Download

Seeders : 545   &   Leechers : 776      05-10-2018 (2 weeks)
Ant Man and the Wasp 2018 1080p BluRay x Torrent Download
Added: ago by moviezworldz ***** in Movies   3.1 GB   Hits : 45
Info Hash: D21573FBBA1E650F858D80BBA6485638E25C542D Download
Ant Man and the Wasp 2018 1080p BluRay x Torrent Download

Anonymous and Direct Download movies , software , shows...

Fast Safe Anonymous
movies, software, shows...
Ant-Man and the Wasp
Action /Adventure /Sci-Fi  .   118 min   7.3/10
Director : Peyton Reed  
Tags: Ant  Man  and  the  Wasp  2018  

Released:
06 Jul 2018
In the aftermath of 'Captain America: Civil War,' Scott Lang grapples with the consequences of his choices as both a Super Hero and a father. As he struggles to re-balance his home life with his responsibilities as Ant-Man, he's confronted by Hope van Dyne and Dr. .... See More Hank Pym with an urgent new mission. Scott must once again put on the suit and learn to fight alongside The Wasp as the team works together to uncover secrets from their past.

Torrent Description







General
Format : Matroska
Format version : Version 4 / Version 2
File size : 3.07 GiB
Duration : 1 h 58 min
Overall bit rate : 3 721 kb/s

Video
ID : 1
Format : AVC
Format/Info : Advanced Video Codec
Format profile : [email protected]
Format settings : CABAC / 4 Ref Frames
Format settings, CABAC : Yes
Format settings, RefFrames : 4 frames
Codec ID : V_MPEG4/ISO/AVC
Duration : 1 h 58 min
Bit rate : 3 000 kb/s
Width : 1 920 pixels
Height : 804 pixels
Display aspect ratio : 2.40:1
Frame rate mode : Constant
Frame rate : 23.976 (24000/1001) FPS
Color space : YUV
Chroma subsampling : 4:2:0
Bit depth : 8 bits
Scan type : Progressive
Bits/(Pixel*Frame) : 0.081
Stream size : 2.44 GiB (79%)
Writing library : x264 core 155 r2901 7d0ff22
Default : Yes
Forced : No

Audio
ID : 2
Format : DTS
Format/Info : Digital Theater Systems
Codec ID : A_DTS
Duration : 1 h 58 min
Bit rate mode : Constant
Bit rate : 756 kb/s
Channel(s) : 6 channels
Channel positions : Front: L C R, Side: L R, LFE
Sampling rate : 48.0 kHz
Frame rate : 93.750 FPS (512 SPF)
Bit depth : 16 bits
Compression mode : Lossy
Stream size : 639 MiB (20%)
Language : English
Default : Yes
Forced : No

Text
ID : 3
Format : VobSub
Muxing mode : zlib
Codec ID : S_VOBSUB
Codec ID/Info : Picture based subtitle format used on DVDs
Duration : 1 h 57 min
Bit rate : 6 859 b/s
Count of elements : 2136
Stream size : 5.77 MiB (0%)
Language : English
Default : Yes
Forced : No


Click To Enlarge Image










Sharing Widget


No Comments For This Torrent . Be The First to Comment

You must Login to Comment . Click Here to Login

Menu 1

Some content in menu 1.

Ant Man and the Wasp 2018 1080p BluRay x264 DTS [MW] (Size: 3.1 GB)
  Ant Man and the Wasp 2018 1080p BluRay x264 DTS [MW] 3.1 GB
tracker name
udp://tracker.leechers-paradise.org:6969/announce
udp://zer0day.ch:1337/announce
udp://open.demonii.com:1337/announce
udp://tracker.coppersurfer.tk:6969/announce
udp://exodus.desync.com:6969/announce
µTorrent compatible trackers list

Relative Torrents

Torrent Name Size Age SEED LEECH
The Alec Baldwin Show S01E02 WEB x264-CokieMonster [eztv]
Posted by    EZTVag   in   TV
341.7 MB 9 minutes 71 792
Jersey Shore Family Vacation S02E10 WEB 264-CookieMonster[TGx]
Posted by    mazemaze16   in   TV
622.6 MB 9 minutes 697 386
The Alec Baldwin Show S01E02 WEB x264-CokieMonster[TGx]
Posted by    mazemaze16   in   TV
343.4 MB 9 minutes 106 209
Dancing with the Stars Juniors S01E03 WE x264-CookieMonster[TGx]
Posted by    mazemaze16   in   TV
354.2 MB 9 minutes 981 918
Dancing with the Stars Juniors S01E03 WE x264-CookieMonster [eztv]
Posted by    EZTVag   in   TV
350.8 MB 9 minutes 480 777