Ant Man 2 and the Wasp (2018) 720p Hindi Torrent Free Download

Seeders : 998   &   Leechers : 678      07-07-2018 (3 months)
Ant Man 2 and the Wasp (2018) 720p Hindi Torrent Download
Added: ago by shmasti ***** in Movies   942.3 MB   Hits : 41
Info Hash: 99F721FABA5CD0C39477C7E750199456054EBE09 Download
Ant Man 2 and the Wasp (2018) 720p Hindi Torrent Download

Anonymous and Direct Download movies , software , shows...

Fast Safe Anonymous
movies, software, shows...
Ant-Man and the Wasp
Action /Adventure /Sci-Fi  .   118 min   7.3/10
Director : Peyton Reed  
Tags: Ant  Man  2  and  the  Wasp  

Released:
06 Jul 2018
In the aftermath of 'Captain America: Civil War,' Scott Lang grapples with the consequences of his choices as both a Super Hero and a father. As he struggles to re-balance his home life with his responsibilities as Ant-Man, he's confronted by Hope van Dyne and Dr. .... See More Hank Pym with an urgent new mission. Scott must once again put on the suit and learn to fight alongside The Wasp as the team works together to uncover secrets from their past.

Torrent Description





General
Complete name : Ant Man 2 and the Wasp (2018) 720p Hindi Dubbed (Clean) HDCAM x264 AAC by Full4movies.mkv
Format : Matroska
Format version : Version 4 / Version 2
File size : 942 MiB
Duration : 1 h 47 min
Overall bit rate : 1 228 kb/s
Encoded date : UTC 2018-07-07 17:09:49
Writing application : mkvmerge v8.1.0 ('Psychedelic Postcard') 32bit
Writing library : libebml v1.3.1 + libmatroska v1.4.2

Video
ID : 1
Format : AVC
Format/Info : Advanced Video Codec
Format profile : [email protected]
Format settings, CABAC : Yes
Format settings, RefFrames : 3 frames
Codec ID : V_MPEG4/ISO/AVC
Duration : 1 h 47 min
Bit rate : 1 066 kb/s
Width : 720 pixels
Height : 298 pixels
Display aspect ratio : 2.40:1
Frame rate mode : Variable
Frame rate : 24.061 FPS
Original frame rate : 23.976 (24000/1001) FPS
Color space : YUV
Chroma subsampling : 4:2:0
Bit depth : 8 bits
Scan type : Progressive
Bits/(Pixel*Frame) : 0.207
Stream size : 818 MiB (87%)
Writing library : x264 core 152 r2851bm ba24899
Default : Yes
Forced : No

Audio
ID : 2
Format : MPEG Audio
Format version : Version 1
Format profile : Layer 3
Mode : Joint stereo
Codec ID : A_MPEG/L3
Codec ID/Hint : MP3
Duration : 1 h 47 min
Bit rate mode : Constant
Bit rate : 160 kb/s
Channel(s) : 2 channels
Sampling rate : 44.1 kHz
Frame rate : 38.281 FPS (1152 SPF)
Compression mode : Lossy
Stream size : 123 MiB (13%)
Writing library : LAME3.98.2
Language : Hindi
Default : Yes
Forced : Yes

Screen Shoots




Sharing Widget


No Comments For This Torrent . Be The First to Comment

You must Login to Comment . Click Here to Login

Menu 1

Some content in menu 1.

Ant Man 2 and the Wasp (2018) 720p Hindi Dubbed (Clean) HDCAM x264 AAC (Size: 942.3 MB)
  Ant Man 2 and the Wasp (2018) 720p Hindi Dubbed (Clean) HDCAM x264 AAC 942.3 MB
tracker name
udp://tracker.leechers-paradise.org:6969/announce
udp://zer0day.ch:1337/announce
udp://open.demonii.com:1337/announce
udp://tracker.coppersurfer.tk:6969/announce
udp://exodus.desync.com:6969/announce
µTorrent compatible trackers list

Relative Torrents

Torrent Name Size Age SEED LEECH
The Alec Baldwin Show S01E02 WEB x264-CokieMonster [eztv]
Posted by    EZTVag   in   TV
341.7 MB 11 minutes 71 792
Jersey Shore Family Vacation S02E10 WEB 264-CookieMonster[TGx]
Posted by    mazemaze16   in   TV
622.6 MB 11 minutes 697 386
The Alec Baldwin Show S01E02 WEB x264-CokieMonster[TGx]
Posted by    mazemaze16   in   TV
343.4 MB 11 minutes 106 209
Dancing with the Stars Juniors S01E03 WE x264-CookieMonster[TGx]
Posted by    mazemaze16   in   TV
354.2 MB 11 minutes 981 918
Dancing with the Stars Juniors S01E03 WE x264-CookieMonster [eztv]
Posted by    EZTVag   in   TV
350.8 MB 11 minutes 480 777