18+ The Kindergarten Teacher 2018 UNCENS Torrent Free Download

Seeders : 634   &   Leechers : 933      12-10-2018 (6 days)
18+ The Kindergarten Teacher 2018 UNCENS Torrent Download
Added: ago by nehalpuja ***** in Movies   924.6 MB   Hits : 19
Info Hash: 8E784460F17306075BA05B19E7D149F22E04181C Download
18+ The Kindergarten Teacher 2018 UNCENS Torrent Download

Anonymous and Direct Download movies , software , shows...

Fast Safe Anonymous
movies, software, shows...

Torrent Description



18+ The Kindergarten Teacher 2018 UNCENSORED Movies HDRip x264 5.1 with Sample ☻rDX☻
===============================================================================================

SCREEN SHOTS:



or

http://iphonehosting.eu/2018/10/rehab/1.html

File size : 915 MiB
Duration : 1 h 37 min
Overall bit rate mode : Constant
Overall bit rate : 1 319 kb/s
Movie name : 18+ The Kindergarten Teacher 2018 UNCENSORED Movies HDRip x264 5.1 ☻rDX☻

Video
ID : 2
Format : AVC
Format/Info : Advanced Video Codec
Format profile : [email protected]
Format settings, CABAC : Yes
Format settings, ReFrames : 2 frames
Format settings, GOP : M=1, N=12
Codec ID : V_MPEG4/ISO/AVC
Duration : 1 h 37 min
Bit rate mode : Constant
Bit rate : 936 kb/s
Width : 720 pixels
Height : 304 pixels
Display aspect ratio : 2.35:1
Frame rate mode : Constant
Frame rate : 24.000 FPS
Color space : YUV
Chroma subsampling : 4:2:0
Bit depth : 8 bits
Scan type : Progressive
Bits/(Pixel*Frame) : 0.178
Stream size : 630 MiB (69%)
Title : ☻rDX☻
Default : Yes
Forced : No

Audio
ID : 1
Format : AC-3
Format/Info : Audio Coding 3
Mode extension : CM (complete main)
Format settings, Endianness : Big
Codec ID : A_AC3
Duration : 1 h 37 min
Bit rate mode : Constant
Bit rate : 384 kb/s
Channel(s) : 6 channels
Channel positions : Front: L C R, Side: L R, LFE
Sampling rate : 48.0 kHz
Frame rate : 31.250 FPS (1536 spf)
Bit depth : 16 bits
Compression mode : Lossy
Stream size : 266 MiB (29%)
Title : ☻rDX☻
Default : Yes
Forced : No

http://www.imdb.com/title/tt6952960/




Sharing Widget


No Comments For This Torrent . Be The First to Comment

You must Login to Comment . Click Here to Login

Menu 1

Some content in menu 1.

18+ The Kindergarten Teacher 2018 UNCENSORED Movies HDRip x264 5 1 wit (Size: 924.6 MB)
  18+ The Kindergarten Teacher 2018 UNCENSORED Movies HDRip x264 5 1 wit 924.6 MB
tracker name
udp://tracker.leechers-paradise.org:6969/announce
udp://zer0day.ch:1337/announce
udp://open.demonii.com:1337/announce
udp://tracker.coppersurfer.tk:6969/announce
udp://exodus.desync.com:6969/announce
µTorrent compatible trackers list

Relative Torrents

Torrent Name Size Age SEED LEECH
(18+) Russian Mom (2016) HDRip x264 [37MB] HotMovie
Posted by    220x   in   Movies
376.0 MB 2 minutes 84 407
Peter Kays Comedy Shuffle S03E01 INTERNA 480p x264-mSD[TGx]
Posted by    mazemaze16   in   TV
127.9 MB 4 minutes 927 454
How to Get Away with Murder S05E04 720p DTV x264-KILLERS [eztv]
Posted by    EZTVag   in   TV
1.0 GB 4 minutes 613 121
Engineering Catastrophes S02E02 Skyscrapr vs Sinkhole 720p WEBRip x264-CAFFEiNE
Posted by    EZTVag   in   TV
1.3 GB 4 minutes 814 591
Young Sheldon S02E05 1080p WEB x264-TBS[artv]
Posted by    Cristie   in   TV
607.7 MB 4 minutes 655 710