18+ Look Away 2019 UNCENSORED Movies HDR Torrent Free Download

Seeders : 587   &   Leechers : 225      12-10-2018 (1 week)
18+ Look Away 2019 UNCENSORED Movies HDR Torrent Download
Added: ago by nehalpuja ***** in Movies   940.8 MB   Hits : 23
Info Hash: 106F1316C22961FCCB5A97245D2EFAA4A344618C Download
18+ Look Away 2019 UNCENSORED Movies HDR Torrent Download

Anonymous and Direct Download movies , software , shows...

Fast Safe Anonymous
movies, software, shows...

Torrent Description



18+ Look Away 2019 UNCENSORED Movies HDRip x264 5.1 with Sample ☻rDX☻
===============================================================================================

SCREEN SHOTS:



or

http://iphonehosting.eu/2018/10/rent/1.html

File size : 932 MiB
Duration : 1 h 43 min
Overall bit rate mode : Constant
Overall bit rate : 1 264 kb/s
Movie name : 18+ Look Away 2019 UNCENSORED Movies HDRip x264 5.1 ☻rDX☻

Video
ID : 2
Format : AVC
Format/Info : Advanced Video Codec
Format profile : [email protected]
Format settings, CABAC : Yes
Format settings, ReFrames : 2 frames
Format settings, GOP : M=1, N=12
Codec ID : V_MPEG4/ISO/AVC
Duration : 1 h 43 min
Bit rate mode : Constant
Bit rate : 881 kb/s
Width : 720 pixels
Height : 304 pixels
Display aspect ratio : 2.35:1
Frame rate mode : Constant
Frame rate : 23.976 FPS
Color space : YUV
Chroma subsampling : 4:2:0
Bit depth : 8 bits
Scan type : Progressive
Bits/(Pixel*Frame) : 0.168
Stream size : 630 MiB (68%)
Title : ☻rDX☻
Default : Yes
Forced : No

Audio
ID : 1
Format : AC-3
Format/Info : Audio Coding 3
Mode extension : CM (complete main)
Format settings, Endianness : Big
Codec ID : A_AC3
Duration : 1 h 43 min
Bit rate mode : Constant
Bit rate : 384 kb/s
Channel(s) : 6 channels
Channel positions : Front: L C R, Side: L R, LFE
Sampling rate : 48.0 kHz
Frame rate : 31.250 FPS (1536 spf)
Bit depth : 16 bits
Compression mode : Lossy
Stream size : 283 MiB (30%)
Title : ☻rDX☻
Default : Yes
Forced : No

http://www.imdb.com/title/tt5834760/




Sharing Widget


No Comments For This Torrent . Be The First to Comment

You must Login to Comment . Click Here to Login

Menu 1

Some content in menu 1.

18+ Look Away 2019 UNCENSORED Movies HDRip x264 5 1 with Sample ☻rDX (Size: 940.8 MB)
  18+ Look Away 2019 UNCENSORED Movies HDRip x264 5 1 with Sample ☻rDX 940.8 MB
tracker name
udp://tracker.leechers-paradise.org:6969/announce
udp://zer0day.ch:1337/announce
udp://open.demonii.com:1337/announce
udp://tracker.coppersurfer.tk:6969/announce
udp://exodus.desync.com:6969/announce
µTorrent compatible trackers list

Relative Torrents

Torrent Name Size Age SEED LEECH
Cold War 2018 SUBBED DVDRip XviD-BiPOLARavi
Posted by    abnadem   in   Movies
699.8 MB 12 seconds 541 197
Supergirl S04E02 720p WEB x265-MiNX [ezt]
Posted by    EZTVag   in   TV
192.8 MB 2 minutes 723 119
Lets Eat US S01E07 Appetizer That 720p WB x264-CAFFEiNE [eztv]
Posted by    EZTVag   in   TV
480.4 MB 2 minutes 364 842
Koreni 2018 S01EP01 720p x264 - ExYuSubs
Posted by    Botanicar   in   TV
799.3 MB 7 minutes 595 861
Jersey Shore Family Vacation S02E10 WEB 264-CookieMonster [eztv]
Posted by    EZTVag   in   TV
619.9 MB 7 minutes 360 960