18+ I Still See You 2018 Movies HDRip x2 Torrent Free Download

Seeders : 746   &   Leechers : 991      12-10-2018 (6 days)
18+ I Still See You 2018 Movies HDRip x2 Torrent Download
Added: ago by nehalpuja ***** in Movies   705.7 MB   Hits : 16
Info Hash: 1AECB969E7F33487EB81098B816B8176E12B00E9 Download
18+ I Still See You 2018 Movies HDRip x2 Torrent Download

Anonymous and Direct Download movies , software , shows...

Fast Safe Anonymous
movies, software, shows...

Torrent Description



18+ I Still See You 2018 Movies HDRip x264 AAC with Sample ☻rDX☻
===============================================================================================

SCREEN SHOTS:



or

http://iphonehosting.eu/2018/10/revenue/1.html

File size : 694 MiB
Duration : 1 h 38 min
Overall bit rate mode : Constant
Overall bit rate : 988 kb/s
Movie name : 18+ I Still See You 2018 Movies HDRip x264 AAC ☻rDX☻

Video
ID : 2
Format : AVC
Format/Info : Advanced Video Codec
Format profile : [email protected]
Format settings, CABAC : Yes
Format settings, ReFrames : 2 frames
Format settings, GOP : M=1, N=12
Codec ID : V_MPEG4/ISO/AVC
Duration : 1 h 38 min
Bit rate mode : Constant
Bit rate : 925 kb/s
Width : 720 pixels
Height : 304 pixels
Display aspect ratio : 2.35:1
Frame rate mode : Constant
Frame rate : 23.976 (24000/1001) FPS
Color space : YUV
Chroma subsampling : 4:2:0
Bit depth : 8 bits
Scan type : Progressive
Bits/(Pixel*Frame) : 0.176
Stream size : 635 MiB (92%)
Title : ☻rDX☻
Default : Yes
Forced : No

Audio
ID : 1
Format : MPEG Audio
Format version : Version 1
Format profile : Layer 3
Mode : Joint stereo
Mode extension : MS Stereo
Codec ID : A_MPEG/L3
Codec ID/Hint : MP3
Duration : 1 h 38 min
Bit rate mode : Constant
Bit rate : 64.0 kb/s
Channel(s) : 2 channels
Sampling rate : 44.1 kHz
Compression mode : Lossy
Stream size : 44.9 MiB (6%)
Title : ☻rDX☻
Default : Yes
Forced : No

http://www.imdb.com/title/tt2160105/




Sharing Widget


No Comments For This Torrent . Be The First to Comment

You must Login to Comment . Click Here to Login

Menu 1

Some content in menu 1.

18+ I Still See You 2018 Movies HDRip x264 AAC with Sample ☻rDX☻ (Size: 705.7 MB)
  18+ I Still See You 2018 Movies HDRip x264 AAC with Sample ☻rDX☻ 705.7 MB
tracker name
udp://tracker.leechers-paradise.org:6969/announce
udp://zer0day.ch:1337/announce
udp://open.demonii.com:1337/announce
udp://tracker.coppersurfer.tk:6969/announce
udp://exodus.desync.com:6969/announce
µTorrent compatible trackers list

Relative Torrents

Torrent Name Size Age SEED LEECH
(18+) Russian Mom (2016) HDRip x264 [37MB] HotMovie
Posted by    220x   in   Movies
376.0 MB 2 minutes 84 407
Peter Kays Comedy Shuffle S03E01 INTERNA 480p x264-mSD[TGx]
Posted by    mazemaze16   in   TV
127.9 MB 4 minutes 927 454
How to Get Away with Murder S05E04 720p DTV x264-KILLERS [eztv]
Posted by    EZTVag   in   TV
1.0 GB 4 minutes 613 121
Engineering Catastrophes S02E02 Skyscrapr vs Sinkhole 720p WEBRip x264-CAFFEiNE
Posted by    EZTVag   in   TV
1.3 GB 4 minutes 814 591
Young Sheldon S02E05 1080p WEB x264-TBS[artv]
Posted by    Cristie   in   TV
607.7 MB 4 minutes 655 710