18+ I Still See You 2018 Movies HDRip x2 Torrent Free Download

Seeders : 147   &   Leechers : 375      12-10-2018 (1 week)
18+ I Still See You 2018 Movies HDRip x2 Torrent Download
Added: ago by nehalpuja ***** in Movies   927.8 MB   Hits : 24
Info Hash: 3117BBF91564B8F2BCCE14670E5514A4C1B1AC51 Download
18+ I Still See You 2018 Movies HDRip x2 Torrent Download

Anonymous and Direct Download movies , software , shows...

Fast Safe Anonymous
movies, software, shows...

Torrent Description



18+ I Still See You 2018 Movies HDRip x264 5.1 with Sample ☻rDX☻
===============================================================================================

SCREEN SHOTS:



or

http://iphonehosting.eu/2018/10/revenue/1.html

File size : 919 MiB
Duration : 1 h 38 min
Overall bit rate mode : Constant
Overall bit rate : 1 308 kb/s
Movie name : 18+ I Still See You 2018 Movies HDRip x264 5.1 ☻rDX☻

Video
ID : 2
Format : AVC
Format/Info : Advanced Video Codec
Format profile : [email protected]
Format settings, CABAC : Yes
Format settings, ReFrames : 2 frames
Format settings, GOP : M=1, N=12
Codec ID : V_MPEG4/ISO/AVC
Duration : 1 h 38 min
Bit rate mode : Constant
Bit rate : 925 kb/s
Width : 720 pixels
Height : 304 pixels
Display aspect ratio : 2.35:1
Frame rate mode : Constant
Frame rate : 23.976 (24000/1001) FPS
Color space : YUV
Chroma subsampling : 4:2:0
Bit depth : 8 bits
Scan type : Progressive
Bits/(Pixel*Frame) : 0.176
Stream size : 631 MiB (69%)
Title : ☻rDX☻
Default : Yes
Forced : No

Audio
ID : 1
Format : AC-3
Format/Info : Audio Coding 3
Mode extension : CM (complete main)
Format settings, Endianness : Big
Codec ID : A_AC3
Duration : 1 h 38 min
Bit rate mode : Constant
Bit rate : 384 kb/s
Channel(s) : 6 channels
Channel positions : Front: L C R, Side: L R, LFE
Sampling rate : 48.0 kHz
Frame rate : 31.250 FPS (1536 spf)
Bit depth : 16 bits
Compression mode : Lossy
Stream size : 270 MiB (29%)
Title : ☻rDX☻
Language : English
Default : Yes
Forced : No

http://www.imdb.com/title/tt2160105/




Sharing Widget


No Comments For This Torrent . Be The First to Comment

You must Login to Comment . Click Here to Login

Menu 1

Some content in menu 1.

18+ I Still See You 2018 Movies HDRip x264 5 1 with Sample ☻rDX☻ (Size: 927.8 MB)
  18+ I Still See You 2018 Movies HDRip x264 5 1 with Sample ☻rDX☻ 927.8 MB
tracker name
udp://tracker.leechers-paradise.org:6969/announce
udp://zer0day.ch:1337/announce
udp://open.demonii.com:1337/announce
udp://tracker.coppersurfer.tk:6969/announce
udp://exodus.desync.com:6969/announce
µTorrent compatible trackers list

Relative Torrents

Torrent Name Size Age SEED LEECH
The Fear - O fovos [1966 - Greece] twistd crime drama
Posted by    NrKNrK   in   Movies
1.4 GB 1 minute 796 166
The Siege of Pinchgut - Four Desperate Mn [1959 - UK] action
Posted by    NrKNrK   in   Movies
1.4 GB 1 minute 843 416
Yevadu 3 (Prince In Exile 2018) WEBHD x24 Hindi AAC 577MiB [220x]
Posted by    220x   in   Movies
577.1 MB 1 minute 287 822
Madelines Madeline 2018 Movies HDRip x26 5 1 with Sample ☻rDX☻
Posted by    nehalpuja   in   Movies
914.0 MB 1 minute 631 434
Hellraiser Deader 2005 1080p BluRay H264AAC
Posted by    Trige   in   Movies
1.7 GB 1 minute 625 332