18+ I Still See You 2018 Movies 720p HDR Torrent Free Download

Seeders : 596   &   Leechers : 875      12-10-2018 (6 days)
18+ I Still See You 2018 Movies 720p HDR Torrent Download
Added: ago by nehalpuja ***** in Movies   766.5 MB   Hits : 16
Info Hash: 01C24231AFAE4EC041F382EED56B2EBC4D703BD0 Download
18+ I Still See You 2018 Movies 720p HDR Torrent Download

Anonymous and Direct Download movies , software , shows...

Fast Safe Anonymous
movies, software, shows...

Torrent Description



18+ I Still See You 2018 Movies 720p HDRip x264 AAC ESubs with Sample ☻rDX☻
===============================================================================================

SCREEN SHOTS:



or

http://iphonehosting.eu/2018/10/return/1.html

File size : 758 MiB
Duration : 1 h 38 min
Overall bit rate : 1 080 kb/s
Movie name : 18+ I Still See You 2018 Movies 720p HDRip x264 AAC ESubs ☻rDX☻

Video
ID : 2
Format : AVC
Format/Info : Advanced Video Codec
Format profile : [email protected]
Format settings, CABAC : Yes
Format settings, ReFrames : 4 frames
Codec ID : V_MPEG4/ISO/AVC
Duration : 1 h 38 min
Bit rate : 1 014 kb/s
Width : 1 280 pixels
Height : 530 pixels
Display aspect ratio : 2.40:1
Frame rate mode : Constant
Frame rate : 23.976 (24000/1001) FPS
Color space : YUV
Chroma subsampling : 4:2:0
Bit depth : 8 bits
Scan type : Progressive
Bits/(Pixel*Frame) : 0.062
Stream size : 698 MiB (92%)
Title : ☻rDX☻
Writing library : x264

Audio
ID : 1
Format : MPEG Audio
Format version : Version 1
Format profile : Layer 3
Mode : Joint stereo
Mode extension : MS Stereo
Codec ID : A_MPEG/L3
Codec ID/Hint : MP3
Duration : 1 h 38 min
Bit rate mode : Constant
Bit rate : 64.0 kb/s
Channel(s) : 2 channels
Sampling rate : 44.1 kHz
Compression mode : Lossy
Stream size : 44.9 MiB (6%)
Title : ☻rDX☻
Default : Yes
Forced : No

Text
ID : 3
Format : ASS
Codec ID : S_TEXT/ASS
Codec ID/Info : Advanced Sub Station Alpha
Compression mode : Lossless
Title : ☻rDX☻
Default : Yes
Forced : No

http://www.imdb.com/title/tt2160105/




Sharing Widget


No Comments For This Torrent . Be The First to Comment

You must Login to Comment . Click Here to Login

Menu 1

Some content in menu 1.

18+ I Still See You 2018 Movies 720p HDRip x264 AAC ESubs with Sample (Size: 766.5 MB)
  18+ I Still See You 2018 Movies 720p HDRip x264 AAC ESubs with Sample 766.5 MB
tracker name
udp://tracker.leechers-paradise.org:6969/announce
udp://zer0day.ch:1337/announce
udp://open.demonii.com:1337/announce
udp://tracker.coppersurfer.tk:6969/announce
udp://exodus.desync.com:6969/announce
µTorrent compatible trackers list

Relative Torrents

Torrent Name Size Age SEED LEECH
Informer S01E05 INTERNAL WEB h264-WEBTUB
Posted by    Trige   in   TV
793.0 MB 3 minutes 308 585
Superstore S04E03 HDTV x264-KILLERS [ezt]
Posted by    EZTVag   in   TV
210.8 MB 3 minutes 402 295
Superstore S04E03 HDTV x264-KILLERS[TGx]
Posted by    mazemaze16   in   TV
213.0 MB 3 minutes 202 323
Garage Squad S05E08 A Charger Tribute WERip x264-CAFFEiNE
Posted by    Trige   in   TV
358.5 MB 3 minutes 870 200
The Big Bang Theory S12E05 1080p WEB x26-TBS[rartv]
Posted by    Cristie   in   TV
623.2 MB 3 minutes 710 621