18+ I Still See You 2018 Movies 720p HDR Torrent Free Download

Seeders : 284   &   Leechers : 643      12-10-2018 (6 days)
18+ I Still See You 2018 Movies 720p HDR Torrent Download
Added: ago by nehalpuja ***** in Movies   993.2 MB   Hits : 15
Info Hash: 0467D6CE19FA1961A272D34C62053D3EEA97F9C4 Download
18+ I Still See You 2018 Movies 720p HDR Torrent Download

Anonymous and Direct Download movies , software , shows...

Fast Safe Anonymous
movies, software, shows...

Torrent Description



18+ I Still See You 2018 Movies 720p HDRip x264 5.1 ESubs with Sample ☻rDX☻
===============================================================================================

SCREEN SHOTS:



or

http://iphonehosting.eu/2018/10/return/1.html

File size : 983 MiB
Duration : 1 h 38 min
Overall bit rate : 1 400 kb/s
Movie name : 18+ I Still See You 2018 Movies 720p HDRip x264 5.1 ESubs ☻rDX☻

Video
ID : 2
Format : AVC
Format/Info : Advanced Video Codec
Format profile : [email protected]
Format settings, CABAC : Yes
Format settings, ReFrames : 4 frames
Codec ID : V_MPEG4/ISO/AVC
Duration : 1 h 38 min
Bit rate : 1 014 kb/s
Width : 1 280 pixels
Height : 530 pixels
Display aspect ratio : 2.40:1
Frame rate mode : Constant
Frame rate : 23.976 (24000/1001) FPS
Color space : YUV
Chroma subsampling : 4:2:0
Bit depth : 8 bits
Scan type : Progressive
Bits/(Pixel*Frame) : 0.062
Stream size : 694 MiB (71%)
Title : ☻rDX☻
Writing library : x264

Audio
ID : 1
Format : AC-3
Format/Info : Audio Coding 3
Mode extension : CM (complete main)
Format settings, Endianness : Big
Codec ID : A_AC3
Duration : 1 h 38 min
Bit rate mode : Constant
Bit rate : 384 kb/s
Channel(s) : 6 channels
Channel positions : Front: L C R, Side: L R, LFE
Sampling rate : 48.0 kHz
Frame rate : 31.250 FPS (1536 spf)
Bit depth : 16 bits
Compression mode : Lossy
Stream size : 270 MiB (27%)
Title : ☻rDX☻
Language : English
Default : Yes
Forced : No

Text
ID : 3
Format : ASS
Codec ID : S_TEXT/ASS
Codec ID/Info : Advanced Sub Station Alpha
Compression mode : Lossless
Title : ☻rDX☻
Default : Yes
Forced : No

http://www.imdb.com/title/tt2160105/




Sharing Widget


No Comments For This Torrent . Be The First to Comment

You must Login to Comment . Click Here to Login

Menu 1

Some content in menu 1.

18+ I Still See You 2018 Movies 720p HDRip x264 5 1 ESubs with Sample (Size: 993.2 MB)
  18+ I Still See You 2018 Movies 720p HDRip x264 5 1 ESubs with Sample 993.2 MB
tracker name
udp://tracker.leechers-paradise.org:6969/announce
udp://zer0day.ch:1337/announce
udp://open.demonii.com:1337/announce
udp://tracker.coppersurfer.tk:6969/announce
udp://exodus.desync.com:6969/announce
µTorrent compatible trackers list

Relative Torrents

Torrent Name Size Age SEED LEECH
Future & Juice WRLD - WRLD ON DRUGS (201) Mp3 (320kbps) [Hunter]
Posted by    kajalsusi24   in   Music
116.4 MB 3 minutes 733 885
The Super 2018 1080p WEB-DL H264 AC3-EVOTGx]
Posted by    mazemaze16   in   Movies
3.1 GB 3 minutes 490 623
The Super 2018 1080p WEB-DL H264 AC3-EVOEtHD]
Posted by    EtHD   in   Movies
3.1 GB 3 minutes 604 934
The Big Bang Theory S12E05 iNTERNAL 720pWEB x264-BAMBOOZLE [eztv]
Posted by    EZTVag   in   TV
421.9 MB 4 minutes 19 754
Mom S06E04 1080p WEB x264-TBS[rartv]
Posted by    Cristie   in   TV
701.8 MB 4 minutes 389 889