18+ Afraid 2018 UNCENSORED Movies DVDRip Torrent Free Download

Seeders : 948   &   Leechers : 807      12-10-2018 (6 days)
18+ Afraid 2018 UNCENSORED Movies DVDRip Torrent Download
Added: ago by nehalpuja ***** in Movies   707.0 MB   Hits : 21
Info Hash: 03DD39D6CDB5DF9CDEF42D4441408DB53094CBD9 Download
18+ Afraid 2018 UNCENSORED Movies DVDRip Torrent Download

Anonymous and Direct Download movies , software , shows...

Fast Safe Anonymous
movies, software, shows...

Torrent Description



18+ Afraid 2018 UNCENSORED Movies DVDRip x264 AAC with Sample ☻rDX☻
===============================================================================================

SCREEN SHOTS:



or

http://iphonehosting.eu/2018/10/recovery/1.html

File size : 695 MiB
Duration : 1 h 20 min
Overall bit rate mode : Constant
Overall bit rate : 1 212 kb/s
Movie name : 18+ Afraid 2018 UNCENSORED Movies DVDRip x264 AAC ☻rDX☻

Video
ID : 1
Format : AVC
Format/Info : Advanced Video Codec
Format profile : [email protected]
Format settings, CABAC : Yes
Format settings, ReFrames : 2 frames
Format settings, GOP : M=1, N=12
Codec ID : V_MPEG4/ISO/AVC
Duration : 1 h 20 min
Bit rate mode : Constant
Bit rate : 1 149 kb/s
Width : 720 pixels
Height : 400 pixels
Display aspect ratio : 16:9
Frame rate mode : Constant
Frame rate : 29.970 (30000/1001) FPS
Color space : YUV
Chroma subsampling : 4:2:0
Bit depth : 8 bits
Scan type : Progressive
Bits/(Pixel*Frame) : 0.133
Stream size : 645 MiB (93%)
Title : ☻rDX☻
Default : Yes
Forced : No

Audio
ID : 2
Format : MPEG Audio
Format version : Version 1
Format profile : Layer 3
Mode : Joint stereo
Mode extension : MS Stereo
Codec ID : A_MPEG/L3
Codec ID/Hint : MP3
Duration : 1 h 20 min
Bit rate mode : Constant
Bit rate : 64.0 kb/s
Channel(s) : 2 channels
Sampling rate : 44.1 kHz
Compression mode : Lossy
Stream size : 36.7 MiB (5%)
Title : ☻rDX☻
Default : Yes
Forced : No

http://www.imdb.com/title/tt8623162/




Sharing Widget


No Comments For This Torrent . Be The First to Comment

You must Login to Comment . Click Here to Login

Menu 1

Some content in menu 1.

18+ Afraid 2018 UNCENSORED Movies DVDRip x264 AAC with Sample ☻rDX (Size: 707.0 MB)
  18+ Afraid 2018 UNCENSORED Movies DVDRip x264 AAC with Sample ☻rDX 707.0 MB
tracker name
udp://tracker.leechers-paradise.org:6969/announce
udp://zer0day.ch:1337/announce
udp://open.demonii.com:1337/announce
udp://tracker.coppersurfer.tk:6969/announce
udp://exodus.desync.com:6969/announce
µTorrent compatible trackers list

Relative Torrents

Torrent Name Size Age SEED LEECH
An Evening with Beverly Luff Linn 2018 70p WEB-DL DD5 1 H264-CMRG[EtHD]
Posted by    EtHD   in   Movies
3.4 GB 1 minute 176 826
An Evening with Beverly Luff Linn 2018 180p WEB-DL DD5 1 H264-CMRG[EtHD]
Posted by    EtHD   in   Movies
4.2 GB 1 minute 767 138
An Evening with Beverly Luff Linn 2018 180p WEB-DL DD5 1 H264-CMRG[TGx]
Posted by    mazemaze16   in   Movies
4.2 GB 1 minute 222 560
The Darkest Minds (2018) [BluRay] [1080p [YTS] [YIFY]
Posted by    YTSAGx   in   Movies
1.7 GB 1 minute 7 968
Galveston 2018 HDRip AC3 X264-CMRG[TGx]
Posted by    mazemaze16   in   Movies
1.3 GB 1 minute 703 124