18+ Afraid 2018 UNCENSORED Movies DVDRip Torrent Free Download

Seeders : 490   &   Leechers : 524      12-10-2018 (1 week)
18+ Afraid 2018 UNCENSORED Movies DVDRip Torrent Download
Added: ago by nehalpuja ***** in Movies   890.0 MB   Hits : 20
Info Hash: E387AC6ADDF295765107BEE193EE25BD3FDA1D34 Download
18+ Afraid 2018 UNCENSORED Movies DVDRip Torrent Download

Anonymous and Direct Download movies , software , shows...

Fast Safe Anonymous
movies, software, shows...

Torrent Description



18+ Afraid 2018 UNCENSORED Movies DVDRip x264 5.1 with Sample ☻rDX☻
===============================================================================================

SCREEN SHOTS:



or

http://iphonehosting.eu/2018/10/recovery/1.html

File size : 879 MiB
Duration : 1 h 20 min
Overall bit rate mode : Constant
Overall bit rate : 1 532 kb/s
Movie name : 18+ Afraid 2018 UNCENSORED Movies DVDRip x264 5.1 ☻rDX☻

Video
ID : 2
Format : AVC
Format/Info : Advanced Video Codec
Format profile : [email protected]
Format settings, CABAC : Yes
Format settings, ReFrames : 2 frames
Format settings, GOP : M=1, N=12
Codec ID : V_MPEG4/ISO/AVC
Duration : 1 h 20 min
Bit rate mode : Constant
Bit rate : 1 149 kb/s
Width : 720 pixels
Height : 400 pixels
Display aspect ratio : 16:9
Frame rate mode : Constant
Frame rate : 29.970 (30000/1001) FPS
Color space : YUV
Chroma subsampling : 4:2:0
Bit depth : 8 bits
Scan type : Progressive
Bits/(Pixel*Frame) : 0.133
Stream size : 641 MiB (73%)
Title : ☻rDX☻
Default : Yes
Forced : No

Audio
ID : 1
Format : AC-3
Format/Info : Audio Coding 3
Mode extension : CM (complete main)
Format settings, Endianness : Big
Codec ID : A_AC3
Duration : 1 h 20 min
Bit rate mode : Constant
Bit rate : 384 kb/s
Channel(s) : 6 channels
Channel positions : Front: L C R, Side: L R, LFE
Sampling rate : 48.0 kHz
Frame rate : 31.250 FPS (1536 spf)
Bit depth : 16 bits
Compression mode : Lossy
Stream size : 220 MiB (25%)
Title : ☻rDX☻
Default : Yes
Forced : No

http://www.imdb.com/title/tt8623162/




Sharing Widget


No Comments For This Torrent . Be The First to Comment

You must Login to Comment . Click Here to Login

Menu 1

Some content in menu 1.

18+ Afraid 2018 UNCENSORED Movies DVDRip x264 5 1 with Sample ☻rDX (Size: 890.0 MB)
  18+ Afraid 2018 UNCENSORED Movies DVDRip x264 5 1 with Sample ☻rDX 890.0 MB
tracker name
udp://tracker.leechers-paradise.org:6969/announce
udp://zer0day.ch:1337/announce
udp://open.demonii.com:1337/announce
udp://tracker.coppersurfer.tk:6969/announce
udp://exodus.desync.com:6969/announce
µTorrent compatible trackers list

Relative Torrents

Torrent Name Size Age SEED LEECH
Formula1 2018 American Grand Prix Qualifing PDTV x264-GRiP[TGx]
Posted by    mazemaze16   in   TV
1.1 GB 2 minutes 612 925
Deck the Halls (2006) [BluRay] [1080p] [TS] [YIFY]
Posted by    YTSAGx   in   Movies
1.5 GB 4 minutes 181 269
It 2017 PROPER 720p BluRay H264 AAC
Posted by    Trige   in   Movies
1.7 GB 4 minutes 92 633
Halloween 4: The Return of Michael Myers(1988) [BluRay] [1080p] [YTS] [YIFY]
Posted by    YTSAGx   in   Movies
1.4 GB 7 minutes 545 606
Dracula 2012 1080p BluRay H264 AAC
Posted by    Trige   in   Movies
2.1 GB 7 minutes 518 473